Marvels Cloak and Dagger 1x01 Prima Luce Torrent Free Download

Seeders : 180   &   Leechers : 516      08-06-2018 (2 weeks)
Marvels Cloak and Dagger 1x01 Prima Luce Torrent Download
Added: ago by ppb1 ***** in TV   2.2 GB   Hits : 18
Info Hash: 25C4CD5B1E171C9D6A9E5C5840804DC7F4E43890 Download
Marvels Cloak and Dagger 1x01 Prima Luce Torrent Download

Anonymous and Direct Download movies , software , shows...

Fast Safe Anonymous
movies, software, shows...

Torrent Description





GIUSEPPEiCV & LITTLELINX
HANNO IL PIACERE DI PRESENTARE


STAGIONE 1
WEBMUX 1080p




.: Dati Serie :.

Nazione : Stati Uniti d'America
Anno : 2018
Genere : azione, fantascienza
Stagione : 1
Episodi : 10
Durata : 45 min circa
Lingua : ITA - ENG
Cast :
• Olivia Holt: Tandy Bowen / Dagger
• Aubrey Joseph: Tyrone Johnson / Cloak
• Andrea Roth: Melissa Bowen
• Gloria Reuben: Adina Johnson
• Miles Mussenden: Michael Johnson
• Carl Lundstedt: Liam
• James Saito: Bernard Sanjo
• J.D. Evermore: Connors


.: Trama :.

Two teenagers from very different backgrounds find themselves burdened and awakened to newly acquired superpowers while falling in love.

Marvel's Cloak & Dagger, nota semplicemente come Cloak & Dagger, è una serie televisiva statunitense sviluppata da Joe Pokaski per Freeform e basata sugli omonimi personaggi della Marvel Comics. La serie è ambientata all'interno del Marvel Cinematic Universe, in continuità con i film e le altre serie televisive del franchise, ed è prodotta da ABC Signature Studios e Marvel Television, con Pokaski nel ruolo di showrunner.

La serie è incentrata sui personaggi di Tyrone Johnson / Cloak e Tandy Bowen / Dagger, due adolescenti innamorati che acquisiscono dei superpoteri.

Tyrone Johnson e Tandy Bowen, due adolescenti di diversa estrazione sociale, scoprono di aver appena acquisito i superpoteri e di essere legati misteriosamente l'uno all'altra. Lui è connesso con una dimensione oscura, mentre lei può emettere fasci di luce. Mentre si confrontano con le responsabilità del proprio ruolo e imparano che insieme sono più forti, i sentimenti che provano l'uno per l'altra rendono il loro mondo già complicato un affare ancora più impegnativo.


[center].: Screenshot :.



.: Caratteristiche Tecniche :.


[spoiler]
Marvels.Cloak.and.Dagger.1x01.Prima.Luce.ITA.ENG.1080p.AMZN.WEB-DLMux.H.264-Morpheus.mkv
Format : Matroska
Format version : Version 4 / Version 2
File size : 2.24 GiB
Duration : 49mn 15s
Overall bit rate mode : Variable
Overall bit rate : 6 514 Kbps
Encoded date : UTC 2018-06-08 15:48:31
Writing application : mkvmerge v7.6.0 ('Garden of Dreams') 64bit built on Feb 8 2015 15:12:28
Writing library : libebml v1.3.1 + libmatroska v1.4.2
DURATION : 00:49:15.424000000
NUMBER_OF_FRAMES : 92357
NUMBER_OF_BYTES : 141860352
_STATISTICS_WRITING_APP : mkvmerge v7.6.0 ('Garden of Dreams') 64bit built on Feb 8 2015 15:12:28
_STATISTICS_WRITING_DATE_UTC : 2018-06-08 15:48:31
_STATISTICS_TAGS : BPS DURATION NUMBER_OF_FRAMES NUMBER_OF_BYTES

Video
ID : 1
Format : AVC
Format/Info : Advanced Video Codec
Format profile : [email protected]
Format settings, CABAC : Yes
Format settings, ReFrames : 4 frames
Codec ID : V_MPEG4/ISO/AVC
Duration : 49mn 15s
Bit rate mode : Variable
Bit rate : 5 809 Kbps
Maximum bit rate : 15.0 Mbps
Width : 1 920 pixels
Height : 1 080 pixels
Display aspect ratio : 16:9
Frame rate : 23.976 fps
Color space : YUV
Chroma subsampling : 4:2:0
Bit depth : 8 bits
Scan type : Progressive
Bits/(Pixel*Frame) : 0.117
Stream size : 2.00 GiB (89%)
Default : Yes
Forced : No
Color primaries : BT.709-5, BT.1361, IEC 61966-2-4, SMPTE RP177
Transfer characteristics : BT.709-5, BT.1361
Matrix coefficients : BT.709-5, BT.1361, IEC 61966-2-4 709, SMPTE RP177

Audio #1
ID : 2
Format : AC-3
Format/Info : Audio Coding 3
Mode extension : CM (complete main)
Codec ID : A_AC3
Duration : 49mn 15s
Bit rate mode : Constant
Bit rate : 192 Kbps
Channel(s) : 2 channels
Channel positions : Front: L R
Sampling rate : 48.0 KHz
Bit depth : 16 bits
Compression mode : Lossy
Stream size : 67.6 MiB (3%)
Title : ITA
Language : Italian
Default : Yes
Forced : Yes

Audio #2
ID : 3
Format : AC-3
Format/Info : Audio Coding 3
Mode extension : CM (complete main)
Codec ID : A_AC3
Duration : 49mn 15s
Bit rate mode : Constant
Bit rate : 384 Kbps
Channel(s) : 6 channels
Channel positions : Front: L C R, Side: L R, LFE
Sampling rate : 48.0 KHz
Bit depth : 16 bits
Compression mode : Lossy
Stream size : 135 MiB (6%)
Title : ENG
Language : English
Default : No
Forced : No

Text #1
ID : 4
Format : UTF-8
Codec ID : S_TEXT/UTF8
Codec ID/Info : UTF-8 Plain Text
Title : ITA - Forced
Language : Italian
Default : Yes
Forced : Yes

Text #2
ID : 5
Format : UTF-8
Codec ID : S_TEXT/UTF8
Codec ID/Info : UTF-8 Plain Text
Language : Italian
Default : No
Forced : No

Text #3
ID : 6
Format : UTF-8
Codec ID : S_TEXT/UTF8
Codec ID/Info : UTF-8 Plain Text
Language : English
[/spoiler]

.: Ringraziamenti :.




RESTATE IN SEED ALTRIMENTI









Sharing Widget


No Comments For This Torrent . Be The First to Comment

You must Login to Comment . Click Here to Login

Menu 1

Some content in menu 1.

Marvels Cloak and Dagger 1x01 Prima Luce ITA ENG 1080p AMZN WEB-DLMux (Size: 2.2 GB)
  Marvels Cloak and Dagger 1x01 Prima Luce ITA ENG 1080p AMZN WEB-DLMux 2.2 GB
tracker name
udp://tracker.leechers-paradise.org:6969/announce
udp://zer0day.ch:1337/announce
udp://open.demonii.com:1337/announce
udp://tracker.coppersurfer.tk:6969/announce
udp://exodus.desync.com:6969/announce
µTorrent compatible trackers list

Relative Torrents

Torrent Name Size Age SEED LEECH
d22515bb1696a79ea9a77a5dfdc2150f
Posted by    iDope   in   Music
2.8 MB 54 seconds 903 974
Carib-091011-803-mp4
Posted by    iDope   in   Video
699.2 MB 54 seconds 627 645
Justice League The New Frontier 2008 Cusom DVDRip x264 Hun-Garfield
Posted by    iDope   in   Movies
925.2 MB 54 seconds 845 471
WildOnCam Eden Sin 720p HEVC x265 piemonter mkv
Posted by    iDope   in   Video
442.8 MB 54 seconds 334 749
Eric Clapton Drifting Blues_H264_AAC_108p mp4
Posted by    iDope   in   Video
30.4 MB 54 seconds 412 472