Sense8 2x12 Amor Vincit Omnia ITA ENG 10 Torrent Free Download

Seeders : 395   &   Leechers : 714      08-06-2018 (2 weeks)
Sense8 2x12 Amor Vincit Omnia ITA ENG 10 Torrent Download
Added: ago by ppb1 ***** in TV   7.7 GB   Hits : 19
Info Hash: 148AD84D30AA2BB18477E133E52D393E3E6202E3 Download
Sense8 2x12 Amor Vincit Omnia ITA ENG 10 Torrent Download

Anonymous and Direct Download movies , software , shows...

Fast Safe Anonymous
movies, software, shows...

Torrent Description





[size=22pt]GIUSEPPEiCV & LITTLELINX
HANNO IL PIACERE DI PRESENTARE[/size]


[size=14pt]SENSE8
STAGIONE 2
EPISODIO FINALE
WEBMUX 720p - 1080p
ITA - ENG AC3 5.1
Sub ITA - ENG
[/size]

[size=12pt].: Screenshot Ep 2x12 VERS. 1080p:. [/size]



[size=12pt].: Caratteristiche Tecniche Vers. 1080p :. [/size]



[spoiler]Sense8.2x12.Amor.Vincit.Omnia.ITA.ENG.1080p.WEBMux.DD5.1.x264-Morpheus.mkv
Format : Matroska
Format version : Version 4 / Version 2
File size : 7.65 GiB
Duration : 2h 31mn
Overall bit rate mode : Variable
Overall bit rate : 7 224 Kbps
Encoded date : UTC 2018-06-08 09:08:49
Writing application : mkvmerge v7.6.0 ('Garden of Dreams') 64bit built on Feb 8 2015 15:12:28
Writing library : libebml v1.3.1 + libmatroska v1.4.2
DURATION : 02:30:39.989000000
NUMBER_OF_FRAMES : 1655
NUMBER_OF_BYTES : 48155
_STATISTICS_WRITING_APP : mkvmerge v7.6.0 ('Garden of Dreams') 64bit built on Feb 8 2015 15:12:28
_STATISTICS_WRITING_DATE_UTC : 2018-06-08 09:08:49
_STATISTICS_TAGS : BPS DURATION NUMBER_OF_FRAMES NUMBER_OF_BYTES

Video
ID : 1
Format : AVC
Format/Info : Advanced Video Codec
Format profile : [email protected]
Format settings, CABAC : Yes
Format settings, ReFrames : 3 frames
Codec ID : V_MPEG4/ISO/AVC
Duration : 2h 31mn
Bit rate mode : Variable
Bit rate : 6 490 Kbps
Maximum bit rate : 9 735 Kbps
Width : 1 920 pixels
Height : 1 080 pixels
Display aspect ratio : 16:9
Frame rate : 23.976 fps
Color space : YUV
Chroma subsampling : 4:2:0
Bit depth : 8 bits
Scan type : Progressive
Bits/(Pixel*Frame) : 0.131
Stream size : 6.69 GiB (87%)
Writing library : x264 core 148 r2715 7e75228
Encoding settings : cabac=1 / ref=3 / deblock=1:0:0 / analyse=0x1:0x111 / me=umh / subme=10 / psy=1 / psy_rd=1.00:0.00 / mixed_ref=1 / me_range=24 / chroma_me=1 / trellis=2 / 8x8dct=0 / cqm=0 / deadzone=21,11 / fast_pskip=1 / chroma_qp_offset=-2 / threads=8 / lookahead_threads=1 / sliced_threads=0 / nr=0 / decimate=1 / interlaced=0 / bluray_compat=0 / stitchable=1 / constrained_intra=0 / bframes=2 / b_pyramid=0 / b_adapt=2 / b_bias=0 / direct=3 / weightb=1 / open_gop=0 / weightp=2 / keyint=48 / keyint_min=25 / scenecut=0 / intra_refresh=0 / rc_lookahead=48 / rc=2pass / mbtree=1 / bitrate=6490 / ratetol=1.0 / qcomp=0.50 / qpmin=6 / qpmax=51 / qpstep=4 / cplxblur=20.0 / qblur=0.5 / vbv_maxrate=9735 / vbv_bufsize=12980 / nal_hrd=vbr / filler=0 / ip_ratio=1.40 / aq=1:1.00
Default : Yes
Forced : No
DURATION : 02:31:39.680000000
NUMBER_OF_FRAMES : 284365
NUMBER_OF_BYTES : 436784640
_STATISTICS_WRITING_APP : mkvmerge v7.6.0 ('Garden of Dreams') 64bit built on Feb 8 2015 15:12:28
_STATISTICS_WRITING_DATE_UTC : 2018-06-08 09:08:49
_STATISTICS_TAGS : BPS DURATION NUMBER_OF_FRAMES NUMBER_OF_BYTES

Audio #1
ID : 2
Format : AC-3
Format/Info : Audio Coding 3
Mode extension : CM (complete main)
Codec ID : A_AC3
Duration : 2h 31mn
Bit rate mode : Constant
Bit rate : 384 Kbps
Channel(s) : 6 channels
Channel positions : Front: L C R, Side: L R, LFE
Sampling rate : 48.0 KHz
Bit depth : 16 bits
Compression mode : Lossy
Stream size : 417 MiB (5%)
Title : ITA
Language : Italian
Default : Yes
Forced : Yes

Audio #2
ID : 3
Format : AC-3
Format/Info : Audio Coding 3
Mode extension : CM (complete main)
Codec ID : A_AC3
Duration : 2h 31mn
Bit rate mode : Constant
Bit rate : 384 Kbps
Channel(s) : 6 channels
Channel positions : Front: L C R, Side: L R, LFE
Sampling rate : 48.0 KHz
Bit depth : 16 bits
Compression mode : Lossy
Stream size : 417 MiB (5%)
Title : ENG
Language : English
Default : No
Forced : No

Text #1
ID : 4
Format : UTF-8
Codec ID : S_TEXT/UTF8
Codec ID/Info : UTF-8 Plain Text
Title : ITA - Forced
Language : Italian
Default : Yes
Forced : Yes

Text #2
ID : 5
Format : UTF-8
Codec ID : S_TEXT/UTF8
Codec ID/Info : UTF-8 Plain Text
Title : ENG - Forced
Language : English
Default : No
Forced : No

Text #3
ID : 6
Format : UTF-8
Codec ID : S_TEXT/UTF8
Codec ID/Info : UTF-8 Plain Text
Title : Italian
Language : Italian
Default : No
Forced : No

Text #4
ID : 7
Format : UTF-8
Codec ID : S_TEXT/UTF8
Codec ID/Info : UTF-8 Plain Text
Title : English
Language : English
Default : No
Forced : No

[/spoiler]




Sharing Widget


No Comments For This Torrent . Be The First to Comment

You must Login to Comment . Click Here to Login

Menu 1

Some content in menu 1.

Sense8 2x12 Amor Vincit Omnia ITA ENG 1080p WEBMux DD5 1 x264-Morpheus (Size: 7.7 GB)
  Sense8 2x12 Amor Vincit Omnia ITA ENG 1080p WEBMux DD5 1 x264-Morpheus 7.7 GB
tracker name
udp://tracker.leechers-paradise.org:6969/announce
udp://zer0day.ch:1337/announce
udp://open.demonii.com:1337/announce
udp://tracker.coppersurfer.tk:6969/announce
udp://exodus.desync.com:6969/announce
µTorrent compatible trackers list

Relative Torrents

Torrent Name Size Age SEED LEECH
[email protected]@PublicAgent - Abiail Ash - Horny art student swallows cu
Posted by    iDope   in   Video
285.0 MB 5 minutes 519 101
NASCAR Monster Energy Cup Series 2018 0408 Texas 720p HDTV x264-DHD mkv
Posted by    iDope   in   Video
4.8 GB 5 minutes 157 925
Dimmu Borgir - Eonian (Limited Box) (201)
Posted by    iDope   in   Music
191.1 MB 5 minutes 45 775
Black Panther 2018 BluRay 1080p AVC DTS-D [email protected]
Posted by    iDope   in   Movies
42.3 GB 5 minutes 13 821
29 gapl015
Posted by    iDope   in   Video
2.1 GB 5 minutes 618 824