Sense8 2x12 Amor Vincit Omnia ITA ENG 72 Torrent Free Download

Seeders : 938   &   Leechers : 858      08-06-2018 (2 weeks)
Sense8 2x12 Amor Vincit Omnia ITA ENG 72 Torrent Download
Added: ago by ppb1 ***** in TV   4.3 GB   Hits : 20
Info Hash: A130E4CFF2D2F0ABA7CB28AE1933E6BCDDA8141F Download
Sense8 2x12 Amor Vincit Omnia ITA ENG 72 Torrent Download

Anonymous and Direct Download movies , software , shows...

Fast Safe Anonymous
movies, software, shows...

Torrent Description



GIUSEPPEiCV & LITTLELINX
HANNO IL PIACERE DI PRESENTARE


SENSE8 SPECIAL
STAGIONE 2
EPISODIO FINALE
WEBMUX 720p ITA - ENG AC3 5.1


.: Dati Serie :.


Nazione : Stati Uniti d'America
Anno : 2016 - in produzione
Genere : drammatico, crimine, neo-noir
Stagione 2
Durata : 55 min circa
Lingua : ITA - ENG
Cast :
• Doona Bae: Sun Bak
• Aml Ameen: Capheus
• Jamie Clayton: Nomi Marks
• Tina Desai: Kala Dandekar
• Tuppence Middleton: Riley Blue
• Max Riemelt: Wolfgang Bogdanow
• Miguel Ángel Silvestre: Lito Rodriguez
• Brian J. Smith: Will Gorski
• Freema Agyeman: Amanita
• Anupam Kher: Sanyam Dandekar
• Terrence Mann: Whispers
• Naveen Andrews: Jonas Maliki
• Daryl Hannah: Angelica Turing



La serie fantascientifica di Netflix termina con un episodio speciale di durata extra

.: Screenshot :.



.: Caratteristiche Tecniche :.
[spoiler]

Sense8.2x12.Amor.Vincit.Omnia.ITA.ENG.720p.WEBMux.DD5.1.x264-Morpheus.mkv
Format                                   : Matroska
Format version                           : Version 4 / Version 2
File size                                : 4.31 GiB
Duration                                 : 2h 31mn
Overall bit rate mode                    : Variable
Overall bit rate                         : 4 071 Kbps
Encoded date                             : UTC 2018-06-08 09:34:48
Writing application                      : mkvmerge v7.6.0 ('Garden of Dreams') 64bit built on Feb  8 2015 15:12:28
Writing library                          : libebml v1.3.1 + libmatroska v1.4.2
DURATION                                 : 02:30:17.341000000
NUMBER_OF_FRAMES                         : 1932
NUMBER_OF_BYTES                          : 60491
_STATISTICS_WRITING_APP                  : mkvmerge v7.6.0 ('Garden of Dreams') 64bit built on Feb  8 2015 15:12:28
_STATISTICS_WRITING_DATE_UTC             : 2018-06-08 09:34:48
_STATISTICS_TAGS                         : BPS DURATION NUMBER_OF_FRAMES NUMBER_OF_BYTES

Video
ID                                       : 1
Format                                   : AVC
Format/Info                              : Advanced Video Codec
Format profile                           : [email protected]
Format settings, CABAC                   : Yes
Format settings, ReFrames                : 3 frames
Codec ID                                 : V_MPEG4/ISO/AVC
Duration                                 : 2h 31mn
Bit rate mode                            : Variable
Bit rate                                 : 3 320 Kbps
Maximum bit rate                         : 4 980 Kbps
Width                                    : 1 280 pixels
Height                                   : 720 pixels
Display aspect ratio                     : 16:9
Frame rate                               : 23.976 fps
Color space                              : YUV
Chroma subsampling                       : 4:2:0
Bit depth                                : 8 bits
Scan type                                : Progressive
Bits/(Pixel*Frame)                       : 0.150
Stream size                              : 3.41 GiB (79%)
Writing library                          : x264 core 148 r2715 7e75228
Encoding settings                        : cabac=1 / ref=3 / deblock=1:0:0 / analyse=0x1:0x111 / me=umh / subme=10 / psy=1 / psy_rd=1.00:0.00 / mixed_ref=1 / me_range=24 / chroma_me=1 / trellis=2 / 8x8dct=0 / cqm=0 / deadzone=21,11 / fast_pskip=1 / chroma_qp_offset=-2 / threads=8 / lookahead_threads=1 / sliced_threads=0 / nr=0 / decimate=1 / interlaced=0 / bluray_compat=0 / stitchable=1 / constrained_intra=0 / bframes=2 / b_pyramid=0 / b_adapt=2 / b_bias=0 / direct=3 / weightb=1 / open_gop=0 / weightp=2 / keyint=48 / keyint_min=25 / scenecut=0 / intra_refresh=0 / rc_lookahead=48 / rc=2pass / mbtree=1 / bitrate=3320 / ratetol=1.0 / qcomp=0.50 / qpmin=6 / qpmax=51 / qpstep=4 / cplxblur=20.0 / qblur=0.5 / vbv_maxrate=4980 / vbv_bufsize=6640 / nal_hrd=vbr / filler=0 / ip_ratio=1.40 / aq=1:1.00
Default                                  : Yes
Forced                                   : No

Audio #1
ID                                       : 2
Format                                   : AC-3
Format/Info                              : Audio Coding 3
Mode extension                           : CM (complete main)
Codec ID                                 : A_AC3
Duration                                 : 2h 31mn
Bit rate mode                            : Constant
Bit rate                                 : 384 Kbps
Channel(s)                               : 6 channels
Channel positions                        : Front: L C R, Side: L R, LFE
Sampling rate                            : 48.0 KHz
Bit depth                                : 16 bits
Compression mode                         : Lossy
Stream size                              : 417 MiB (9%)
Title                                    : ITA
Language                                 : Italian
Default                                  : Yes
Forced                                   : Yes

Audio #2
ID                                       : 3
Format                                   : AC-3
Format/Info                              : Audio Coding 3
Mode extension                           : CM (complete main)
Codec ID                                 : A_AC3
Duration                                 : 2h 31mn
Bit rate mode                            : Constant
Bit rate                                 : 384 Kbps
Channel(s)                               : 6 channels
Channel positions                        : Front: L C R, Side: L R, LFE
Sampling rate                            : 48.0 KHz
Bit depth                                : 16 bits
Compression mode                         : Lossy
Stream size                              : 417 MiB (9%)
Title                                    : ENG
Language                                 : English
Default                                  : No
Forced                                   : No

Text #1
ID                                       : 4
Format                                   : UTF-8
Codec ID                                 : S_TEXT/UTF8
Codec ID/Info                            : UTF-8 Plain Text
Title                                    : ITA - Forced
Language                                 : Italian
Default                                  : Yes
Forced                                   : Yes

Text #2
ID                                       : 5
Format                                   : UTF-8
Codec ID                                 : S_TEXT/UTF8
Codec ID/Info                            : UTF-8 Plain Text
Title                                    : ENG - Forced
Language                                 : English
Default                                  : No
Forced                                   : No

Text #3
ID                                       : 6
Format                                   : UTF-8
Codec ID                                 : S_TEXT/UTF8
Codec ID/Info                            : UTF-8 Plain Text
Title                                    : Italian
Language                                 : Italian
Default                                  : No
Forced                                   : No

Text #4
ID                                       : 7
Format                                   : UTF-8
Codec ID                                 : S_TEXT/UTF8
Codec ID/Info                            : UTF-8 Plain Text
Title                                    : English
Language                                 : English
Default                                  : No
Forced                                   : No

[/spoiler]

.: Banda Dedicata :.

1500kb/s dalle 00 alle 24


.: Ringraziamenti :.

GiuseppeiCV & LittleLinX





RESTATE IN SEED ALTRIMENTI






Sharing Widget


No Comments For This Torrent . Be The First to Comment

You must Login to Comment . Click Here to Login

Menu 1

Some content in menu 1.

Sense8 2x12 Amor Vincit Omnia ITA ENG 720p WEBMux DD5 1 x264-Morpheus (Size: 4.3 GB)
  Sense8 2x12 Amor Vincit Omnia ITA ENG 720p WEBMux DD5 1 x264-Morpheus 4.3 GB
tracker name
udp://tracker.leechers-paradise.org:6969/announce
udp://zer0day.ch:1337/announce
udp://open.demonii.com:1337/announce
udp://tracker.coppersurfer.tk:6969/announce
udp://exodus.desync.com:6969/announce
µTorrent compatible trackers list

Relative Torrents

Torrent Name Size Age SEED LEECH
The Rolling Stones - 2018-05-17 - Croke ark Dublin, IE [FLAC] (AUD, 24-44 1 - t
Posted by    iDope   in   Music
1.2 GB 20 seconds 893 185
61 pppd287
Posted by    iDope   in   Video
1.2 GB 20 seconds 131 531
[email protected]@PublicAgent - Abiail Ash - Horny art student swallows cu
Posted by    iDope   in   Video
285.0 MB 6 minutes 519 101
NASCAR Monster Energy Cup Series 2018 0408 Texas 720p HDTV x264-DHD mkv
Posted by    iDope   in   Video
4.8 GB 6 minutes 157 925
Dimmu Borgir - Eonian (Limited Box) (201)
Posted by    iDope   in   Music
191.1 MB 6 minutes 45 775