Shifting Gears 2018 Movies 720p HDRip x2 Torrent Free Download

Seeders : 17   &   Leechers : 154      14-06-2018 (1 week)
Shifting Gears 2018 Movies 720p HDRip x2 Torrent Download
Added: ago by nehalpuja ***** in Movies   965.1 MB   Hits : 15
Info Hash: C182173F0C3332A9E78C83E723D38E61FD6EC8EC Download
Shifting Gears 2018 Movies 720p HDRip x2 Torrent Download

Anonymous and Direct Download movies , software , shows...

Fast Safe Anonymous
movies, software, shows...
Shifting Gears
Short /Drama /Family  .   3 min   N/A/10
Director : Paula Aguilar  
Writer: Paula Aguilar  
Tags: Shifting  Gears  2018  Movies  720p  HDRip  

Released:
18 Aug 2015
Young girl interested in cars is finally accepted by her father and family.

Torrent Description



Shifting Gears 2018 Movies 720p HDRip x264 5.1 with Sample ☻rDX☻
===============================================================================================

SCREEN SHOTS:



or

http://iphonehosting.eu/2018/6/iphonex/1.html

File size : 956 MiB
Duration : 1 h 41 min
Overall bit rate : 1 315 kb/s
Movie name : Shifting Gears 2018 Movies 720p HDRip x264 5.1 ☻rDX☻

Video
ID : 2
Format : AVC
Format/Info : Advanced Video Codec
Format profile : [email protected]
Format settings, CABAC : Yes
Format settings, ReFrames : 4 frames
Codec ID : V_MPEG4/ISO/AVC
Duration : 1 h 41 min
Bit rate : 930 kb/s
Width : 1 280 pixels
Height : 720 pixels
Display aspect ratio : 16:9
Frame rate mode : Constant
Frame rate : 23.976 (24000/1001) FPS
Color space : YUV
Chroma subsampling : 4:2:0
Bit depth : 8 bits
Scan type : Progressive
Bits/(Pixel*Frame) : 0.042
Stream size : 658 MiB (69%)
Title : ☻rDX☻
Writing library : x264

Audio
ID : 1
Format : AC-3
Format/Info : Audio Coding 3
Mode extension : CM (complete main)
Format settings, Endianness : Big
Codec ID : A_AC3
Duration : 1 h 41 min
Bit rate mode : Constant
Bit rate : 384 kb/s
Channel(s) : 6 channels
Channel positions : Front: L C R, Side: L R, LFE
Sampling rate : 48.0 kHz
Frame rate : 31.250 FPS (1536 spf)
Bit depth : 16 bits
Compression mode : Lossy
Delay relative to video : -21 ms
Stream size : 279 MiB (29%)
Title : ☻rDX☻
Default : Yes
Forced : No



IMDB : http://www.imdb.com/title/tt4264610




Sharing Widget


No Comments For This Torrent . Be The First to Comment

You must Login to Comment . Click Here to Login

Menu 1

Some content in menu 1.

Shifting Gears 2018 Movies 720p HDRip x264 5 1 with Sample ☻rDX☻ (Size: 965.1 MB)
  Shifting Gears 2018 Movies 720p HDRip x264 5 1 with Sample ☻rDX☻ 965.1 MB
tracker name
udp://tracker.leechers-paradise.org:6969/announce
udp://zer0day.ch:1337/announce
udp://open.demonii.com:1337/announce
udp://tracker.coppersurfer.tk:6969/announce
udp://exodus.desync.com:6969/announce
µTorrent compatible trackers list

Relative Torrents

Torrent Name Size Age SEED LEECH
Rush: A Disney-Pixar Adventure (MULTi17)[FitGirl Repack, Selective - from 4 1 G
Posted by    FitGirl   in   Games
10.0 GB 57 seconds 697 670
公牛历险记 2017 国粤台英 中英幕£CMCT无尽
Posted by    iDope   in   Video
4.2 GB 4 minutes 130 282
The Past (2018) (Hindi) HDRip XviD AC3-EO
Posted by    iDope   in   Movies
720.5 MB 4 minutes 678 247
Hannah Montana and Miley Cyrus-Best of Bth Worlds[2D VERSION](2008)DvdRip[MiNdS
Posted by    iDope   in   Movies
694.1 MB 4 minutes 928 194
Hulk E Gli Agenti S M A S H 1x07 Gli Incedibili Hulk Ristretti ITA ENG 1080p DL
Posted by    iDope   in   Video
892.3 MB 4 minutes 967 870